TORRENTZ FREE DOWNLOAD
WWW.TORENTZ.3XFORUM.RO TORENTZ.TK TORRENTZ FREE DOWNLOAD TORRENTZ FREE DOWNLOAD TORRENT DOWNLOAD H33T AHASHARE EXTRATORRENT THEPIRATEBAY KAT KickassTorrents 1337x LIMETORRENTS MONOVA NEWTORRENTS FENOPY PUBLICHD TORRENTHOUND TORRENTZ BT-CHAT TORRENTDOWNLOADS ALIVETORRENTS TORRENTREACTOR SEEDPEER BITSNOOP TORRENTFREAK.COM
Lista Forumurilor Pe Tematici
TORRENTZ FREE DOWNLOAD | Lista de useri | Cauta | Inregistrare | Login

CHAT GENERAL | CHAT TORENTZ | POZE TORENTZ

Nu sunteti logat.
Nou pe simpatie.ro:
cristyiubi
Femeie
24 ani
Suceava

cauta Barbat
23 - 30 ani

Contact us on piratepedia@gmail.com if you can offer something as accounts,movies,games,etc
TORRENTZ FREE DOWNLOAD / MAX TORRENTZ / Final Destination 5 (2011) DVDRip XviD-MAXSPEED    
Autor
Mesaj Pagini: 1
admin
Administrator
Mesaj Privat

Inregistrat: 14-04-2009


Screens:





Alternative:

Code:

http://www.postimg.com/image/55000/photo-54082.jpg
http://www.postimg.com/image/55000/photo-54083.jpg
http://www.postimg.com/image/55000/photo-54084.jpg

ScreenCaps:



Code:

Final Destination 5 (2011) DVDRip XviD-MAXSPEED
Format                           : AVI
Format/Info                      : Audio Video Interleave
File size                        : 1.46 GiB
Duration                         : 1h 31mn
Overall bit rate                 : 2 274 Kbps
Writing application              : VirtualDubMod 1.5.10.2 (build 2542/release)
Writing library                  : VirtualDubMod build 2542/release
Original source form             : MAX TORRENTZ
Copyright                        : SIGISMUNT

Video
ID                               : 0
Format                           : MPEG-4 Visual
Format profile                   : AdvancedSimple@L5
Format settings, BVOP            : Yes
Format settings, QPel            : No
Format settings, GMC             : No warppoints
Format settings, Matrix          : Default (H.263)
Codec ID                         : XVID
Codec ID/Hint                    : XviD
Duration                         : 1h 31mn
Bit rate                         : 1 817 Kbps
Width                            : 720 pixels
Height                           : 304 pixels
Display aspect ratio             : 2.35:1
Frame rate                       : 23.976 fps
Resolution                       : 24 bits
Colorimetry                      : 4:2:0
Scan type                        : Progressive
Bits/(Pixel*Frame)               : 0.346
Stream size                      : 1.17 GiB (80%)
Writing library                  : XviD 1.2.1 (UTC 2008-12-04)

Audio
ID                               : 1
Format                           : AC-3
Format/Info                      : Audio Coding 3
Codec ID                         : 2000
Duration                         : 1h 31mn
Bit rate mode                    : Constant
Bit rate                         : 448 Kbps
Channel(s)                       : 6 channels
Channel positions                : Front: L C R, Surround: L R, LFE
Sampling rate                    : 48.0 KHz
Stream size                      : 294 MiB (20%)
Alignment                        : Split accross interleaves
Interleave, duration             : 42 ms (1.00 video frame)
Interleave, preload duration     : 500 ms

Source: DVD (perfect a/v/sync quality,sample included)
This torrent is not seedbox supported,please seed it to the MAX

Note:If you have something to offer as early releases,seedboxes,links,accounts,etc
please contact us on piratepedia[@]msn/gmail.com or our website torentz 3xforum ro

How To Get Your Maxspeed (uTorrent)

Torrent Client - Preferences - Bandwidth - Number of connections - Set aprox. 500 for each 
Torrent Client - Preferences - BiTorrent - Protocol Encryption - Forced
Bandwidth Allocation - High (Set download/upload limit - Unlimited)
Stop Other Active Torrents - Start downloading and wait for connections.
Enjoy and Seed for at least 1:1 ratio. Don't forget to say thanks/leave reviews.
Before downloading you should check/google search sample "release name""sample".
Greets to all actual/future p2p/scene QUALITY groups and affiliate websites.
Don't trust IMDb robot or bad ratings,always watch some trailers first.
Ignore stupid comments/fake/mislabeled/no-DVDrips/CAM/TS/RAR uploads.
Please spread this release/torrent to your friends/forums/etc.
If you need translation subs visit some subtitles sites.
Report if you see online streaming or other spam links.
Recommended movie player VLC PLAYER.



_______________________________________


MAXSPEED MIRROR TORRENTS
http://h33t.to/member/extremezone
http://kickass.to/user/piratepedia/uploads/
http://rarbg.com/torrents.php?search=maxspeed
http://extratorrent.cc/profile/extremezone/torrents/
http://1337x.to/user/piratepedia/
http://thepiratebay.se/user/extremezone/
http://www.torrentz.eu/search?q=maxspeed

08-12-2011 11:19:43
   
admin
Administrator
Mesaj Privat

Inregistrat: 14-04-2009




_______________________________________


MAXSPEED MIRROR TORRENTS
http://h33t.to/member/extremezone
http://kickass.to/user/piratepedia/uploads/
http://rarbg.com/torrents.php?search=maxspeed
http://extratorrent.cc/profile/extremezone/torrents/
http://1337x.to/user/piratepedia/
http://thepiratebay.se/user/extremezone/
http://www.torrentz.eu/search?q=maxspeed

08-12-2011 11:35:48
   
Pagini: 1    
Mergi la
Dezvoltat de 3X Media International
Gazduire Gratuita Forum


 

eXTReMe Tracker
Torentz.tk | SAMP Multiplayer | Scnsrc.me | Sceper.eu | Rlslog.net | PreDB.me
.