TORRENTZ FREE DOWNLOAD
WWW.TORENTZ.3XFORUM.RO TORRENTZ FREE DOWNLOAD TORENTZ FREE DOWNLOADS TORRENT DOWNLOAD THEPIRATEBAY KAT RARBG 1337x TORRENTZ2 TORRENTFREAK.COM
Lista Forumurilor Pe Tematici
TORRENTZ FREE DOWNLOAD | Lista de useri | Cauta | Inregistrare | Login

CHAT GENERAL | CHAT TORENTZ | POZE TORENTZ

Nu sunteti logat.
Nou pe simpatie.ro:
Larina23
Femeie
21 ani
Timis

cauta Barbat
35 - 80 ani

Contact us on piratepedia[@]gmail.com if you can offer something as accounts,movies,games,etc
TORRENTZ FREE DOWNLOAD / MAX TORRENTZ / The Wolverine (2013) DVDRip XviD-MAXSPEED    
Autor
Mesaj Pagini: 1
admin
Administrator
Mesaj Privat

Inregistrat: 14-04-2009


Screens:






ScreenCaps:



Code:

The Wolverine (2013) DVDRip XviD-MAXSPEED
Format                                   : AVI
Format/Info                              : Audio Video Interleave
Format profile                           : OpenDML
Format settings                          : rec
File size                                : 1.45 GiB
Duration                                 : 2h 6mn
Overall bit rate                         : 1 643 Kbps
Writing application                      : VirtualDubMod 1.5.10.2 (build 2542/release)
Writing library                          : VirtualDubMod build 2542/release
Original source form                     : MAX TORRENTZ
Copyright                                : SIGISMUNT

Video
ID                                       : 0
Format                                   : MPEG-4 Visual
Format profile                           : Advanced Simple@L5
Format settings, BVOP                    : 2
Format settings, QPel                    : No
Format settings, GMC                     : No warppoints
Format settings, Matrix                  : Custom
Codec ID                                 : XVID
Codec ID/Hint                            : XviD
Duration                                 : 2h 6mn
Bit rate                                 : 1 254 Kbps
Width                                    : 720 pixels
Height                                   : 304 pixels
Display aspect ratio                     : 2.35:1
Frame rate                               : 23.976 fps
Color space                              : YUV
Chroma subsampling                       : 4:2:0
Bit depth                                : 8 bits
Scan type                                : Progressive
Compression mode                         : Lossy
Bits/(Pixel*Frame)                       : 0.239
Stream size                              : 1.10 GiB (76%)
Writing library                          : XviD 1.2.1 (UTC 2008-12-04)

Audio
ID                                       : 1
Format                                   : AC-3
Format/Info                              : Audio Coding 3
Mode extension                           : CM (complete main)
Format settings, Endianness              : Big
Codec ID                                 : 2000
Duration                                 : 2h 6mn
Bit rate mode                            : Constant
Bit rate                                 : 384 Kbps
Channel(s)                               : 6 channels
Channel positions                        : Front: L C R, Side: L R, LFE
Sampling rate                            : 48.0 KHz
Bit depth                                : 16 bits
Compression mode                         : Lossy
Stream size                              : 346 MiB (23%)
Alignment                                : Aligned on interleaves
Interleave, duration                     : 64 ms (1.53 video frames)
Interleave, preload duration             : 192 ms

Source: DVD (perfect a/v/sync quality,sample included)
This torrent is not seedbox supported,please seed it to the MAX

Note:If you have something to offer as early releases,seedboxes,
links,accounts,etc please contact us on torentz 3xforum ro

How To Get Your MAXSPEED (uTorrent)

Torrent Client - Preferences - Bandwidth - Number of connections - Set aprox. 500 for each
Torrent Client - Preferences - BiTorrent - Protocol Encryption - Forced
Bandwidth Allocation - High (Set download/upload limit - Unlimited)
Stop Other Active Torrents - Start downloading and wait for connections.
Enjoy and Seed for at least 1:1 ratio. Don't forget to say thanks/leave reviews.
If screens/Caps image host is dead google search "release name""screens" or "sample".
Greets to all actual/future p2p/scene QUALITY groups and affiliate websites.
Don't trust IMDb robot or bad ratings,always watch some trailers first.
Ignore stupid comments/fake/mislabeled/no-DVDrips/CAM/TS/RAR uploads.
Please spread this release/torrent to your friends/forums/etc.
If you need translation subs visit some subtitles sites.
Report if you see online streaming or other spam links.
Recommended movie player VLC PLAYER.



_______________________________________
--------------------------------------------------------------------------------------------       
http://petardedevanzare.cabanova.com http://petardeartificii.webs.com
--------------------------------------------------------------------------------------------
MAXSPEED TORRENTS-IF DOWNLOAD BUTTON IS DEAD DOWNLOAD FROM MIRROR SITES
https://katcr.co/new/account-details.php?id=3754
http://rarbg.to/torrents.php?search=maxspeed
http://1337x.to/user/piratepedia/
http://thepiratebay.se/user/extremezone/
https://torrentz2.eu/search?f=maxspeed

06-11-2013 07:18:59
   
admin
Administrator
Mesaj Privat

Inregistrat: 14-04-2009




_______________________________________
--------------------------------------------------------------------------------------------       
http://petardedevanzare.cabanova.com http://petardeartificii.webs.com
--------------------------------------------------------------------------------------------
MAXSPEED TORRENTS-IF DOWNLOAD BUTTON IS DEAD DOWNLOAD FROM MIRROR SITES
https://katcr.co/new/account-details.php?id=3754
http://rarbg.to/torrents.php?search=maxspeed
http://1337x.to/user/piratepedia/
http://thepiratebay.se/user/extremezone/
https://torrentz2.eu/search?f=maxspeed

06-11-2013 08:45:09
   
admin
Administrator
Mesaj Privat

Inregistrat: 14-04-2009
http://subscene.com/subtitles/the-wolve ... ish/814220 english sub file for jap parts only compatible subtitle, download-extract-rename it to The Wolverine (2013) DVDRip XviD-MAXSPEED-add to vlc

_______________________________________
--------------------------------------------------------------------------------------------       
http://petardedevanzare.cabanova.com http://petardeartificii.webs.com
--------------------------------------------------------------------------------------------
MAXSPEED TORRENTS-IF DOWNLOAD BUTTON IS DEAD DOWNLOAD FROM MIRROR SITES
https://katcr.co/new/account-details.php?id=3754
http://rarbg.to/torrents.php?search=maxspeed
http://1337x.to/user/piratepedia/
http://thepiratebay.se/user/extremezone/
https://torrentz2.eu/search?f=maxspeed

07-11-2013 00:38:49
   
Pagini: 1    
Mergi la
Dezvoltat de 3X Media International
Gazduire Gratuita Forum


 

eXTReMe Tracker
Petarde | Artificii | Scnsrc.me | Rlslog.net | PreDB.me
.