TORRENTZ FREE DOWNLOAD
WWW.TORENTZ.3XFORUM.RO TORRENTZ FREE DOWNLOAD TORENTZ FREE DOWNLOADS TORRENT DOWNLOAD THEPIRATEBAY KAT RARBG 1337x TORRENTZ2 TORRENTFREAK.COM
Lista Forumurilor Pe Tematici
TORRENTZ FREE DOWNLOAD | Lista de useri | Cauta | Inregistrare | Login

CHAT GENERAL | CHAT TORENTZ | POZE TORENTZ

Nu sunteti logat.
Nou pe simpatie.ro:
bebika
Femeie
24 ani
Sibiu

cauta Barbat
27 - 48 ani

Contact us on piratepedia[@]gmail.com if you can offer something as accounts,movies,games,etc
TORRENTZ FREE DOWNLOAD / MAX TORRENTZ / The Lego Movie (2014) DVDRip XviD-MAXSPEED    
Autor
Mesaj Pagini: 1
admin
Administrator
Mesaj Privat

Inregistrat: 14-04-2009


Screens:






ScreenCaps:



Code:

The Lego Movie (2014) DVDRip XviD-MAXSPEED
Format                                   : AVI
Format/Info                              : Audio Video Interleave
Format profile                           : OpenDML
Format settings                          : rec
File size                                : 1.31 GiB
Duration                                 : 1h 40mn
Overall bit rate                         : 1 864 Kbps
Writing application                      : VirtualDubMod 1.5.10.2 (build 2542/release)
Writing library                          : VirtualDubMod build 2542/release
Original source form                     : MAX TORRENTZ
Copyright                                : SIGISMUNT

Video
ID                                       : 0
Format                                   : xvid
Codec ID                                 : xvid
Duration                                 : 1h 40mn
Bit rate                                 : 1 475 Kbps
Width                                    : 720 pixels
Height                                   : 304 pixels
Display aspect ratio                     : 2.35:1
Frame rate                               : 25.000 fps
Bits/(Pixel*Frame)                       : 0.269
Stream size                              : 1.03 GiB (79%)

Audio
ID                                       : 1
Format                                   : AC-3
Format/Info                              : Audio Coding 3
Mode extension                           : CM (complete main)
Format settings, Endianness              : Big
Codec ID                                 : 2000
Duration                                 : 1h 40mn
Bit rate mode                            : Constant
Bit rate                                 : 384 Kbps
Channel(s)                               : 6 channels
Channel positions                        : Front: L C R, Side: L R, LFE
Sampling rate                            : 48.0 KHz
Bit depth                                : 16 bits
Compression mode                         : Lossy
Stream size                              : 276 MiB (21%)
Alignment                                : Aligned on interleaves
Interleave, duration                     : 64 ms (1.60 video frames)
Interleave, preload duration             : 192 ms

Source: WEBDL DVDRip (perfect a/v/sync quality,sample included)
This torrent is not seedbox supported,please seed it to the MAX

Note: If you have something to offer as early releases,seedboxes,
contact us on  http://torentz.3xforum.ro or  http://torentz.tk

How To Get Your MAXSPEED (uTorrent)

Torrent Client - Preferences - Bandwidth - Number of connections - Set aprox. 500 for each
Torrent Client - Preferences - BiTorrent - Protocol Encryption - Forced
Bandwidth Allocation - High (Set download/upload limit - Unlimited)
Stop Other Active Torrents - Start downloading and wait for connections.
Enjoy and Seed for at least 1:1 ratio. Don't forget to say thanks/leave reviews.
If screens/Caps image host is dead googlesearch "release name"+"screens" or "sample".
Greets to all actual/future p2p/scene QUALITY groups and affiliate websites.
Don't trust IMDb robot or bad ratings,always watch some trailers first.
Ignore stupid comments/fake/mislabeled/no-DVDrips/CAM/TS/RAR uploads.
Please spread this release/torrent to your friends/forums/etc.
If you need translation subs visit some subtitles sites.
Report if you see online streaming or other spam links.
Recommended movie player VLC PLAYER.



_______________________________________
--------------------------------------------------------------------------------------------       
http://petardedevanzare.cabanova.com http://petardeartificii.webs.com
--------------------------------------------------------------------------------------------
MAXSPEED TORRENTS-IF DOWNLOAD BUTTON IS DEAD DOWNLOAD FROM MIRROR SITES
https://katcr.co/new/account-details.php?id=3754
http://rarbg.to/torrents.php?search=maxspeed
http://1337x.to/user/piratepedia/
http://thepiratebay.se/user/extremezone/
https://torrentz2.eu/search?f=maxspeed

30-04-2014 11:16:05
   
admin
Administrator
Mesaj Privat

Inregistrat: 14-04-2009




_______________________________________
--------------------------------------------------------------------------------------------       
http://petardedevanzare.cabanova.com http://petardeartificii.webs.com
--------------------------------------------------------------------------------------------
MAXSPEED TORRENTS-IF DOWNLOAD BUTTON IS DEAD DOWNLOAD FROM MIRROR SITES
https://katcr.co/new/account-details.php?id=3754
http://rarbg.to/torrents.php?search=maxspeed
http://1337x.to/user/piratepedia/
http://thepiratebay.se/user/extremezone/
https://torrentz2.eu/search?f=maxspeed

30-04-2014 11:52:25
   
Pagini: 1    
  Dezvoltat de 3X Media International
Forum Gratis


 

eXTReMe Tracker
Petarde | Artificii | Scnsrc.me | Rlslog.net | PreDB.me
.